HD-AREA wünscht Euch eine besinnliche Weihnachtszeit ;)

DNS SERVER AENDERNum der staatlichen Zensur zu umgehen. Sollten wir von eurem Provider geseprrt werden, nutzt den TOR BROWSER oder ändert euren DNS SERVER.

Filmwünsche können bei uns im Forum abgegeben werden

Wir Speichern Nicht




 
 
 
Top Releases
Constantine.City.of.Demons.T...
Constantine.City.of.Demons.T...
Mountain.2017.German.DL.DOKU...
Mountain.2017.German.DL.DOKU...
Eleanor.und.Colette.2017.Ger...
Hubert.und.Staller.Eine.scho...
Outrage.Coda.2017.German.AC3...
Sie.nannten.ihn.Jeeg.Robot.2...
Bird.Box.Schliesse.deine.Aug...
Being.Mario.Goetze.2018.GERM...

Cinedubs
Eho.Echo.German.720p.WEBRip....
Eho.Echo.German.1080p.WEBRip...
Bad.Times.at.the.El.Royale.2...
Bad.Spies.2018.German.DL.AC3...
Aquaman.2018.GERMAN.AC3.MD.7...
Bad.Spies.German.DL.AC3.Dubb...
Bad.Spies.German.DL.AC3.Dubb...
Bad.Times.at.the.El.Royale.G...
Bad.Times.at.the.El.Royale.G...
The.Guilty.German.DL.AC3.Dub...

Neuerscheinungen 2017-18
In.Love.and.War.1996.German....
Der.Teufelsschrei.Evilspeak....
Der.Teufelsschrei.THEATRICAL...
When.Angels.Sleep.2018.Germa...
Hudsucker.Der.grosse.Sprung....
Assault.Anschlag.bei.Nacht.A...
Subconscious.Cruelty.2000.Ge...
How.It.Ends.2018.German.AC3D...
Subconscious.Cruelty.2000.MU...
Welcome.Home.2018.German.DD5...

XXX
JapanHDV.18.12.18.Asian.Woma...
JulesJordan.18.12.18.Lana.Rh...
IKnowThatGirl.18.12.16.Aria....
HungryCumEaters.18.12.15.Ait...
LaurenPhillips.18.01.05.Laur...
LANewGirl.18.12.11.Chloe.Tem...
LaurenPhillips.18.02.23.Cumm...
LaurenPhillips.18.04.06.Twer...
Hustler.18.12.16.Olivia.Aust...
LaurenPhillips.18.04.13.Plea...
Kemaco.36.XXX.1080p.WEBRip.M...
LaurenPhillips.18.02.02.Laur...
EvilAngel.Dark.Meat.10.XXX.1...
ImmoralLive.18.12.18.Gabi.Go...
JaysPOV.18.12.15.Aften.Opal....
LaurenPhillips.18.01.26.Lips...
JulesJordan.18.12.16.Autumn....
EvilAngel.Hot.N.Heavy.DPs.XX...
LaurenPhillips.18.02.09.Milk...
LaurenPhillips.18.03.16.Squi...

3D
Limbradur.und.die.Magie.der....
Kaluoka.Hina.Das.Zauberriff....
Limbradur.und.die.Magie.der....
Smallfoot.3D.2018.COMPLETE.B...
Smallfoot.Ein.eisigartiges.A...
Skyscraper.3D.2018.German.DL...
Meg.3D.2018.MULTi.COMPLETE.B...
Meg.3D.2018.German.DL.1080p....
Gans.im.Glueck.3D.2018.MULTi...
The.Art.of.Flight.3D.2011.Ge...
The.End.Of.The.World.3D.2010...
The.First.Avenger.Civil.War....
Die.Unglaublichen.2.2018.3D....
Skyscraper.3D.2018.MULTi.COM...
Ant-Man.And.The.Wasp.3D.2018...

Old_Stuff
Akte.X.S05.German.DTS.DL.108...
Akte.X.S04.German.DTS.DL.108...
Akte.X.S03.German.DTS.DL.108...
Dunkirk.1958.COMPLETE.BLURAY...
Das.Wunder.von.Manhattan.199...
The.Amazing.Spiderman.2.Rise...
Rise.of.the.Predator.2014.Ge...
Detective.Dee.und.das.Geheim...
Detective.Dee.Und.Der.Fluch....
Ghost.Rider.Spirit.of.Vengea...
Species.IV.Das.Erwachen.2007...
Species.IV.Das.Erwachen.2007...
Hotel.Transsilvanien.2012.Ge...
The.Dead.2010.German.DL.1080...
The.Dead.2.India.2013.German...

Filme
Quantico.S03.GERMAN.DL.DUBBE...
Quantico.S03.GERMAN.DUBBED.7...
American.Horror.Story.S08.GE...
American.Horror.Story.S08.GE...
Fuller.House.S01-S03.COMPLET...
Fuller.House.S01-S03.COMPLET...
Fuller.House.S04.COMPLETE.GE...
Fuller.House.S04.COMPLETE.GE...
Die.Medici.Herrscher.von.Flo...
Die.Medici.Herrscher.von.Flo...
In.Love.and.War.1996.German....
Blackjack.Der.Bodyguard.1998...
Blackjack.Der.Bodyguard.1998...
Air.Rage.2001.German.1080p.H...
Air.Rage.2001.German.720p.HD...
Die.Doomsday.Gleichung.2009....
The.Gifted.S02.GERMAN.DL.108...
The.Gifted.S02.GERMAN.720p.H...
Die.Conners.S01.German.DD51....
Die.Conners.S01.German.DD51....
Ice.S02.GERMAN.DL.1080p.HDTV...
Ice.S02.GERMAN.DL.720p.HDTV....
Vikings.S05.GERMAN.1080p.Web...
Vikings.S05.GERMAN.720p.WebH...

 
 
In.Love.and.War.1996.German.1080p.HDTV.x264-NORETAiL​

Jahr: 1996
Genre: Drama, Krieg
Sprache: Deutsch AC3
Laufzeit: 1h 44mn
Bitrate: 4 457 Kbps
Format: MKV
Größe: 3.26 GiB
Release:

Beschreibung:

Italien im Ersten Weltkrieg. Der junge Draufgnger Ernest Hemingway sucht das groe Abenteuer Krieg. Und so ergreift er die erste Chance, die sich ihm bietet und zieht als Sanitter an die italienische Front. Doch kaum angekommen wird er bei dem Versuch, einen verwundeten Kameraden zu retten, im Kugelhagel schwer verletzt. Erst im Feldlazarett kommt er wieder zu sich. Vllig verzweifelt aus Angst, sein Bein zu verlieren, verliebt er sich trotzdem augenblicklich in die hbsche Krankenschwester Agnes. Zwischen den beiden entbrennt eine heimliche, leidenschaftliche Liebe. Doch der Krieg geht mit unbarmherziger Hrte weiter und das Glck der Liebenden wird schon bald auf eine harte Probe gestellt.



Complete name                            : in.love.and.war.1996.german.1080p.hdtv.x264-noretail.mkv
Format                                   : Matroska
Format version                           : Version 2
File size                                : 3.26 GiB
Duration                                 : 1h 44mn
Overall bit rate                         : 4 457 Kbps
Writing application                      : mkvmerge v4.1.1 ('Bouncin' Back') built on Jul  3 2010 22:54:08
Writing library                          : libebml v1.0.0 + libmatroska v1.0

Video
ID                                       : 1
Format                                   : AVC
Format/Info                              : Advanced Video Codec
Format profile                           : High@L4.1
Format settings, CABAC                   : Yes
Format settings, ReFrames                : 5 frames
Codec ID                                 : V_MPEG4/ISO/AVC
Duration                                 : 1h 44mn
Bit rate                                 : 3 985 Kbps
Width                                    : 1 920 pixels
Height                                   : 856 pixels
Display aspect ratio                     : 2.25:1
Frame rate mode                          : Constant
Frame rate                               : 25.000 fps
Color space                              : YUV
Chroma subsampling                       : 4:2:0
Bit depth                                : 8 bits
Scan type                                : Progressive
Bits/(Pixel*Frame)                       : 0.097
Stream size                              : 2.92 GiB (89%)
Writing library                          : x264 core 155 r2901 7d0ff22
Encoding settings                        : cabac=1 / ref=5 / deblock=1:-3:-3 / analyse=0x3:0x133 / me=umh / subme=8 / psy=1 / psy_rd=1.00:0.15 / mixed_ref=1 / me_range=16 / chroma_me=1 / trellis=1 / 8x8dct=1 / cqm=0 / deadzone=21,11 / fast_pskip=0 / chroma_qp_offset=-3 / threads=27 / lookahead_threads=4 / sliced_threads=0 / nr=0 / decimate=1 / interlaced=0 / bluray_compat=0 / constrained_intra=0 / bframes=3 / b_pyramid=2 / b_adapt=2 / b_bias=0 / direct=3 / weightb=1 / open_gop=0 / weightp=2 / keyint=240 / keyint_min=24 / scenecut=40 / intra_refresh=0 / rc_lookahead=50 / rc=crf / mbtree=1 / crf=19.0 / qcomp=0.60 / qpmin=0 / qpmax=69 / qpstep=4 / ip_ratio=1.40 / aq=1:1.00
Language                                 : English
Default                                  : Yes
Forced                                   : No

Audio
ID                                       : 2
Format                                   : AC-3
Format/Info                              : Audio Coding 3
Mode extension                           : CM (complete main)
Format settings, Endianness              : Big
Codec ID                                 : A_AC3
Duration                                 : 1h 44mn
Bit rate mode                            : Constant
Bit rate                                 : 384 Kbps
Channel(s)                               : 6 channels
Channel(s)_Original                      : 2 channels
Channel positions                        : Front: L R
Sampling rate                            : 48.0 KHz
Bit depth                                : 16 bits
Compression mode                         : Lossy
Stream size                              : 288 MiB (9%)
Language                                 : German
Default                                  : Yes
Forced                                   : No


Download:
Share Online Share OnlineShare OnlineShare Online
 

Kommentare